<?xml version="1.0" standalone="no"?>
<!DOCTYPE svg PUBLIC "-//W3C//DTD SVG 1.1//EN" "http://www.w3.org/Graphics/SVG/1.1/DTD/svg11.dtd" >
<svg xmlns="http://www.w3.org/2000/svg">
<metadata></metadata>
<defs>
<font id="daysregular" horiz-adv-x="958" >
<font-face units-per-em="2048" ascent="1638" descent="-410" />
<missing-glyph horiz-adv-x="716" />
<glyph horiz-adv-x="2048" />
<glyph horiz-adv-x="2048" />
<glyph unicode="&#xd;" horiz-adv-x="2048" />
<glyph unicode=" "  horiz-adv-x="716" />
<glyph unicode="&#x09;" horiz-adv-x="716" />
<glyph unicode="&#xa0;" horiz-adv-x="716" />
<glyph unicode="!" horiz-adv-x="653" d="M125 1339q-1 39 27 67t67 28h215q39 0 67 -28t27 -67l-28 -821q-2 -38 -29 -65t-65 -27h-158q-38 0 -65 27t-29 65zM131 125v63q0 65 35.5 100.5t99.5 35.5h123q64 0 99.5 -35.5t35.5 -100.5v-63q0 -65 -35 -100t-100 -35h-123q-64 0 -99.5 35t-35.5 100z" />
<glyph unicode="&#x22;" horiz-adv-x="806" d="M63 1352q-3 35 20.5 58.5t59.5 23.5h131q36 0 59.5 -23.5t20.5 -58.5l-30 -426q-3 -36 -26 -59t-58 -23h-62q-35 0 -58 23t-26 59zM453 1352q-3 35 20 58.5t59 23.5h132q36 0 59 -23.5t20 -58.5l-30 -426q-3 -36 -26 -59t-58 -23h-62q-35 0 -58 23t-26 59z" />
<glyph unicode="#" horiz-adv-x="1714" d="M41 389v119q2 27 18.5 44t42.5 17h217l84 295h-210q-26 0 -44 18t-18 44v118q0 26 18 44t44 18h278l68 233q12 45 55 70t108 25h115q37 0 51.5 -27t3.5 -68l-67 -233h297l67 233q12 45 55 70t109 25h115q37 0 51.5 -27t3.5 -68l-67 -233h176q26 0 42.5 -17.5t18.5 -44.5 v-118q-2 -27 -18.5 -44.5t-42.5 -17.5h-244l-84 -295h211q26 0 43.5 -17.5t17.5 -43.5v-119q0 -26 -16.5 -43.5t-42.5 -17.5h-280l-66 -234q-12 -44 -55 -69t-109 -25h-115q-37 0 -51.5 26.5t-3.5 67.5l66 234h-297l-66 -234q-12 -44 -55 -69t-109 -25h-114q-37 0 -52 26.5 t-4 67.5l66 234h-150q-26 0 -43.5 17.5t-17.5 43.5zM645 563h309l86 307h-309z" />
<glyph unicode="$" horiz-adv-x="1595" d="M61 360q0 32 12 55.5t30 34.5t33 16t28 5h119q89 0 135 -94q49 -103 213 -103h8v318q-95 21 -167 42t-151 57.5t-130 80t-84 108.5t-33 144q0 92 27.5 162t90.5 126.5t175.5 89t271.5 38.5v94q0 26 17.5 43.5t43.5 17.5h74v-153h55v153h74q26 0 44 -17.5t18 -43.5v-92 q130 -1 251 -47t201 -132t80 -190q0 -32 -11.5 -55.5t-29.5 -34.5t-33 -15.5t-28 -4.5h-119q-89 0 -135 94q-43 91 -176 100v-313q66 -14 119.5 -28.5t114.5 -36t107.5 -45t91 -57t73 -71.5t46 -88t17.5 -108q0 -93 -28 -163.5t-91.5 -127t-176.5 -88.5t-273 -37v-94 q0 -26 -18 -44t-44 -18h-74v154h-55v-154h-74q-26 0 -43.5 18t-17.5 44v92h-43q-131 0 -252.5 45.5t-202 131.5t-80.5 191zM451 1044q0 -45 48 -75.5t140 -55.5v246h-12q-176 0 -176 -115zM774 274h55v277l-55 10v-287zM774 883l55 -11v287h-55v-276zM965 274h16 q176 0 176 115q0 44 -49 75t-143 56v-246z" />
<glyph unicode="%" horiz-adv-x="1714" d="M61 1122q0 154 100 243t249 89t248.5 -89t99.5 -243t-99.5 -242.5t-248.5 -88.5t-249 88.5t-100 242.5zM159.5 31q-11.5 31 14.5 63l997 1245q76 95 175 95h159q38 0 49.5 -31.5t-14.5 -63.5l-997 -1245q-75 -94 -174 -94h-160q-38 0 -49.5 31zM295 1122q0 -68 31 -106.5 t84 -38.5t83.5 38.5t30.5 106.5q0 69 -30.5 107.5t-83.5 38.5t-84 -39t-31 -107zM956 313q0 154 100 243t249 89t248.5 -89t99.5 -243t-99.5 -242.5t-248.5 -88.5t-249 88.5t-100 242.5zM1190 313q0 -68 31 -106.5t84 -38.5t83.5 38.5t30.5 106.5q0 69 -30.5 107.5 t-83.5 38.5t-84 -39t-31 -107z" />
<glyph unicode="&#x26;" horiz-adv-x="1560" d="M61 424q0 135 61.5 235t178.5 154q-90 100 -90 234q0 83 34 156t99 129.5t167.5 89t229.5 32.5q254 0 399.5 -88.5t145.5 -259.5q0 -26 -17.5 -44t-43.5 -18h-133q-67 0 -115 74q-60 94 -232 94q-88 0 -137 -39t-49 -108q0 -70 44 -132t128 -134l346 -301l99 141 q14 21 38.5 25t42.5 -9l109 -73q23 -17 27 -40.5t-11 -45.5l-120 -172l256 -230q31 -28 17.5 -61t-52.5 -33h-228q-43 0 -82 16t-61 33.5t-61 54.5q-95 -61 -196 -92.5t-237 -31.5q-268 0 -412.5 118.5t-144.5 325.5zM397 424q0 -203 246 -203q122 0 211 60l-356 321 q-101 -50 -101 -178z" />
<glyph unicode="'" horiz-adv-x="417" d="M63 1352q-3 35 20.5 58.5t59.5 23.5h131q36 0 59.5 -23.5t20.5 -58.5l-30 -426q-3 -36 -26 -59t-58 -23h-62q-35 0 -58 23t-26 59z" />
<glyph unicode="(" horiz-adv-x="665" d="M61 625q0 174 45 335t145 307t247 242q20 14 44.5 7.5t37.5 -29.5l57 -94q7 -10 7.5 -20.5t-4.5 -21t-11 -19t-17 -21.5q-135 -165 -187 -331.5t-52 -354.5t52 -354.5t187 -331.5q11 -13 17 -21.5t11 -19t4.5 -21t-7.5 -20.5l-57 -95q-13 -23 -37.5 -29.5t-44.5 7.5 q-217 143 -327 380t-110 505z" />
<glyph unicode=")" horiz-adv-x="665" d="M21.5 -115q3.5 16 10 26.5t21.5 27.5q135 165 187.5 331.5t52.5 354.5t-52.5 354.5t-187.5 331.5q-15 17 -21.5 27.5t-10 26.5t7.5 28l57 94q13 23 37.5 29.5t44.5 -7.5q217 -143 326.5 -379.5t109.5 -504.5t-109.5 -505t-326.5 -380q-20 -14 -44.5 -7.5t-37.5 29.5 l-57 95q-11 12 -7.5 28z" />
<glyph unicode="*" horiz-adv-x="872" d="M65 931.5q6 25.5 29 37.5l144 75l-144 76q-23 12 -29 37.5t7 46.5l41 76q13 23 36 30t48 -7l133 -82l-2 157q0 26 17 41t44 15h94q27 0 44.5 -15t17.5 -41l-2 -157l133 82q25 14 48 7t36 -30l41 -76q13 -21 6.5 -46.5t-29.5 -37.5l-143 -76l143 -75q23 -12 29.5 -37.5 t-6.5 -46.5l-41 -76q-13 -23 -36 -30t-48 7l-133 82l2 -157q0 -26 -17.5 -41t-44.5 -15h-94q-27 0 -44 15t-17 41l2 157l-133 -82q-25 -14 -48 -7t-36 30l-41 76q-13 21 -7 46.5z" />
<glyph unicode="+" d="M41 569v119q0 26 17.5 44t43.5 18h250v249q0 26 18 44t44 18h118q26 0 44 -18t18 -44v-249h262q26 0 44 -18t18 -44v-119q0 -26 -18 -43.5t-44 -17.5h-262v-262q0 -26 -18 -44t-44 -18h-118q-26 0 -44 18t-18 44v262h-250q-26 0 -43.5 17.5t-17.5 43.5z" />
<glyph unicode="," horiz-adv-x="550" d="M47 -113l59 322q9 46 55.5 80.5t96.5 34.5h82q80 0 112 -42.5t3 -113.5l-119 -301q-20 -48 -62 -81.5t-96 -33.5h-39q-63 0 -83.5 32.5t-8.5 102.5z" />
<glyph unicode="-" d="M41 569v119q0 26 17.5 44t43.5 18h754q26 0 44 -18t18 -44v-119q0 -26 -18 -43.5t-44 -17.5h-754q-26 0 -43.5 17.5t-17.5 43.5z" />
<glyph unicode="." horiz-adv-x="557" d="M82 125v63q0 65 35.5 100.5t99.5 35.5h123q64 0 99.5 -35.5t35.5 -100.5v-63q0 -65 -35.5 -100t-99.5 -35h-123q-65 0 -100 35t-35 100z" />
<glyph unicode="/" horiz-adv-x="1054" d="M2.5 28.5q-9.5 28.5 11.5 65.5l650 1245q22 44 68 69.5t106 25.5h168q37 0 46 -29t-12 -66l-649 -1245q-22 -44 -67.5 -69t-106.5 -25h-168q-37 0 -46.5 28.5z" />
<glyph unicode="0" horiz-adv-x="1630" d="M61 717q0 161 37 286.5t101 207t156.5 134.5t196.5 75t228 22h70q124 0 228 -22t196.5 -75t156.5 -134.5t101 -207t37 -286.5t-37 -286.5t-101 -207t-156.5 -134.5t-196.5 -75t-228 -22h-70q-124 0 -228 22t-196.5 75t-156.5 134.5t-101 207t-37 286.5zM438 717 q0 -443 377 -443t377 443q0 442 -377 442t-377 -442z" />
<glyph unicode="1" horiz-adv-x="798" d="M-14 1122q1 18 9.5 29t24.5 25l244 210q53 48 148 48h147q40 0 68 -27.5t28 -67.5v-1245q0 -38 -28 -66t-68 -28h-186q-38 0 -66 27t-28 65v967l-115 -84q-21 -15 -47 -10t-41 24l-76 96q-15 19 -14 37z" />
<glyph unicode="2" horiz-adv-x="1437" d="M61 94v146q0 99 32 178.5t86.5 131.5t124.5 91.5t148 64.5t156 46t148 39.5t124.5 40.5t86.5 55.5t32 77.5q0 112 -58.5 153t-195.5 41h-71q-96 0 -158.5 -29t-95.5 -94q-46 -94 -135 -94h-119q-13 0 -28 5t-33 16t-30 34.5t-12 55.5q0 115 86.5 206t217 137t272.5 46 h135q106 0 191.5 -13t164 -46t131.5 -86t84 -137t31 -195q0 -103 -40.5 -185t-106.5 -132.5t-150 -90.5t-172 -63t-172 -46t-150 -42.5t-106.5 -50.5t-40.5 -72h830q40 0 68 -27.5t28 -67.5v-94q0 -38 -28 -66t-68 -28h-1110q-40 0 -68.5 28t-28.5 66z" />
<glyph unicode="3" horiz-adv-x="1480" d="M51 391q0 32 12 55.5t30 34.5t33 16t28 5h118q92 0 144 -111q26 -56 90 -86.5t156 -30.5h143q123 0 180 34.5t57 119.5t-57 119.5t-180 34.5h-180q-39 0 -67 27.5t-28 66.5v82q0 37 27.5 65.5t63.5 28.5h147q134 0 194 35t60 119q0 83 -60 118t-194 35h-74 q-96 0 -158.5 -29t-95.5 -94q-46 -94 -135 -94h-119q-18 0 -39 7.5t-42 34.5t-21 69q0 115 86.5 206t216.5 137t272 46h138q602 0 602 -438q0 -85 -34.5 -160t-102.5 -127q84 -52 120.5 -122.5t36.5 -166.5q0 -119 -39 -203.5t-115.5 -135.5t-180.5 -74t-244 -23h-213 q-143 0 -273 46.5t-216.5 139.5t-86.5 213z" />
<glyph unicode="4" horiz-adv-x="1556" d="M20 346v119q0 88 62 156l661 751q56 62 156 62h313q40 0 68.5 -27.5t28.5 -67.5v-804h110q40 0 68.5 -27.5t28.5 -67.5v-94q0 -38 -28.5 -66t-68.5 -28h-110v-158q0 -38 -28.5 -66t-68.5 -28h-186q-38 0 -66 27t-28 65v160h-815q-40 0 -68.5 28t-28.5 66zM422 535h510 v579z" />
<glyph unicode="5" horiz-adv-x="1484" d="M82 346q0 42 21 69t42 34.5t39 7.5h119q43 0 75.5 -22.5t59.5 -72.5q23 -41 79.5 -64.5t133.5 -23.5h158q123 0 180.5 39t57.5 133t-57.5 133t-180.5 39h-582q-38 0 -66 27.5t-28 65.5v628q0 40 27 67.5t67 27.5h1030q40 0 67.5 -27.5t27.5 -67.5v-94q0 -40 -27.5 -67 t-67.5 -27h-747v-250h334q284 0 431.5 -106t147.5 -349q0 -124 -39 -212.5t-115.5 -141t-180.5 -76.5t-244 -24h-228q-226 0 -380 101.5t-154 252.5z" />
<glyph unicode="6" horiz-adv-x="1521" d="M82 483v443q0 146 38.5 247.5t115.5 159.5t179 83.5t242 25.5h254q148 0 268.5 -45t189.5 -125t69 -178q0 -32 -12 -55.5t-30 -34.5t-33 -16t-28 -5h-118q-43 0 -74 21.5t-62 72.5q-50 82 -204 82h-185q-123 0 -178 -48.5t-55 -184.5v-37h422q285 0 432 -104t147 -345 q0 -123 -39 -210.5t-115.5 -139t-180.5 -75t-244 -23.5h-219q-141 0 -244 24t-180.5 79.5t-116.5 152t-39 235.5zM459 483q0 -123 55.5 -166t181.5 -43h150q124 0 180.5 36.5t56.5 129.5t-56.5 129.5t-180.5 36.5h-387v-123z" />
<glyph unicode="7" horiz-adv-x="1304" d="M20 1245v94q0 38 28.5 66.5t68.5 28.5h1071q40 0 68 -28t28 -67v-92q0 -71 -61 -182l-525 -971q-22 -40 -56.5 -67t-74.5 -27h-205q-40 0 -56.5 27t-0.5 57l578 1067h-766q-40 0 -68.5 27.5t-28.5 66.5z" />
<glyph unicode="8" horiz-adv-x="1548" d="M61 430q0 106 48 193t145 139q-73 60 -104 122.5t-31 141.5q0 89 30 160t81.5 118.5t124 79t153 45t172.5 13.5h188q92 0 173 -13.5t153 -45t124 -79t82 -118.5t30 -160q0 -78 -31.5 -141t-104.5 -123q97 -52 145 -139t48 -193q0 -107 -44 -191.5t-121.5 -138t-181 -81 t-225.5 -27.5h-282q-122 0 -225.5 27.5t-181 81t-121.5 138t-44 191.5zM438 432q0 -88 57.5 -123t180.5 -35h196q123 0 180.5 35t57.5 123t-57.5 123t-180.5 35h-196q-123 0 -180.5 -35t-57.5 -123zM483 1012q0 -81 57.5 -114.5t180.5 -33.5h102q123 0 180.5 33.5 t57.5 114.5t-57.5 114t-180.5 33h-102q-123 0 -180.5 -33t-57.5 -114z" />
<glyph unicode="9" horiz-adv-x="1521" d="M61 993q0 123 39 210.5t116 139.5t181 75.5t244 23.5h219q112 0 199.5 -15t160.5 -50t120.5 -91t73.5 -140t26 -196v-442q0 -146 -38.5 -247.5t-116 -159.5t-179.5 -83.5t-242 -25.5h-254q-225 0 -375.5 99.5t-150.5 248.5q0 42 21 69t42 34.5t39 7.5h119q42 0 73 -22 t62 -73q50 -82 205 -82h184q123 0 178.5 49t55.5 185v37h-422q-140 0 -244 23.5t-181 75t-116 139t-39 210.5zM438 993q0 -93 57 -129.5t181 -36.5h387v123q0 123 -55.5 166t-182.5 43h-149q-124 0 -181 -36.5t-57 -129.5z" />
<glyph unicode=":" horiz-adv-x="557" d="M82 125v63q0 65 35.5 100.5t99.5 35.5h123q64 0 99.5 -35.5t35.5 -100.5v-63q0 -65 -35.5 -100t-99.5 -35h-123q-65 0 -100 35t-35 100zM82 918v63q0 65 35 100t100 35h123q64 0 99.5 -35t35.5 -100v-63q0 -65 -35.5 -100.5t-99.5 -35.5h-123q-64 0 -99.5 35.5 t-35.5 100.5z" />
<glyph unicode=";" horiz-adv-x="561" d="M47 -113l59 322q9 46 55.5 80.5t96.5 34.5h82q80 0 112 -42.5t3 -113.5l-119 -301q-20 -48 -62 -81.5t-96 -33.5h-39q-63 0 -83.5 32.5t-8.5 102.5zM86 918v63q0 65 35 100t100 35h123q64 0 99.5 -35t35.5 -100v-63q0 -65 -35.5 -100.5t-99.5 -35.5h-123 q-64 0 -99.5 35.5t-35.5 100.5z" />
<glyph unicode="&#x3c;" horiz-adv-x="860" d="M61 522v49q0 65 60 109l569 403q34 24 61 9.5t27 -50.5v-172q0 -42 -23 -73.5t-65 -61.5l-266 -188l266 -189q42 -30 65 -61.5t23 -73.5v-172q0 -36 -27 -50.5t-61 9.5l-569 404q-60 44 -60 108z" />
<glyph unicode="=" horiz-adv-x="999" d="M61 354v119q0 26 18 44t44 18h754q26 0 43.5 -18t17.5 -44v-119q0 -26 -17.5 -43.5t-43.5 -17.5h-754q-26 0 -44 17.5t-18 43.5zM61 776v119q0 26 18 43.5t44 17.5h754q26 0 43.5 -17.5t17.5 -43.5v-119q0 -26 -17.5 -43.5t-43.5 -17.5h-754q-26 0 -44 17.5t-18 43.5z " />
<glyph unicode="&#x3e;" horiz-adv-x="860" d="M82 51v172q0 42 23 73.5t65 61.5l266 189l-266 188q-42 30 -65 61.5t-23 73.5v172q0 36 27 50.5t61 -9.5l569 -403q60 -44 60 -109v-49q0 -64 -60 -108l-569 -404q-34 -24 -61 -9.5t-27 50.5z" />
<glyph unicode="?" horiz-adv-x="1341" d="M41 1053q0 86 50 161t130 124t176.5 76.5t192.5 27.5h115q98 0 180.5 -13.5t157 -45.5t126 -82.5t81.5 -128t30 -177.5q0 -74 -26 -133.5t-67.5 -96.5t-92 -67t-100.5 -52.5t-91.5 -44t-67.5 -50.5t-26 -64q0 -26 -17.5 -43.5t-43.5 -17.5h-226q-26 0 -43.5 17.5 t-17.5 43.5q0 74 24.5 133t63.5 97t86 68t94 53t86 45t63.5 50t24.5 62q0 87 -54.5 125.5t-172.5 38.5h-51q-167 0 -228 -123q-46 -94 -135 -94h-119q-18 0 -39 7.5t-42 34.5t-21 69zM440 125v63q0 65 35.5 100.5t99.5 35.5h123q64 0 100 -36t36 -100v-63q0 -64 -35.5 -99.5 t-100.5 -35.5h-123q-65 0 -100 35t-35 100z" />
<glyph unicode="@" horiz-adv-x="1699" d="M61 655q0 375 218.5 587t590.5 212q174 0 311 -38.5t241 -119.5t160 -215t56 -315q0 -103 -27.5 -190t-82.5 -156t-148 -107.5t-215 -38.5h-96q-19 0 -31 12t-12 29v23q-106 -76 -248 -76q-143 0 -233 62.5t-90 177.5q0 113 89.5 174t233.5 61h226q0 81 -33.5 112.5 t-106.5 31.5q-91 0 -133 -45q-24 -37 -78 -37h-102q-18 0 -29.5 11.5t-11.5 29.5q0 104 96 150t277 46q105 0 183.5 -29.5t127.5 -98t49 -171.5v-268q63 0 101 71t38 226q0 239 -135 353t-377 114q-259 0 -406 -159t-147 -419t147.5 -418.5t405.5 -158.5q134 0 216.5 15.5 t103.5 15.5h29q26 0 43.5 -19.5t17.5 -46.5v-94q0 -23 -17 -40t-44 -22q-153 -30 -349 -30q-372 0 -590.5 211.5t-218.5 586.5zM690 502q0 -39 29.5 -62.5t83.5 -23.5q109 0 201 61v107h-207q-49 0 -78 -23.5t-29 -58.5z" />
<glyph unicode="A" horiz-adv-x="1708" d="M25 92l251 952q24 92 73.5 162t112 112.5t144 69t161.5 36.5t173 10h539q36 0 61 -28t25 -65v-1249q0 -38 -28 -65t-67 -27h-188q-40 0 -67 27t-27 67v252h-711l-67 -252q-10 -40 -44.5 -67t-74.5 -27h-197q-40 0 -60 27q-13 17 -13 39q0 13 4 26zM551 629h637v522h-285 q-97 0 -168 -54.5t-96 -146.5z" />
<glyph unicode="B" horiz-adv-x="1689" d="M143 94v1245q0 39 28 67t67 28h813q79 0 152.5 -13.5t141 -45t117.5 -77.5t79.5 -116t29.5 -156q0 -79 -31 -141.5t-104 -122.5q97 -52 144.5 -139t47.5 -193q0 -104 -43 -187t-117 -135.5t-168.5 -80t-201.5 -27.5h-860q-40 0 -67.5 28t-27.5 66zM520 270h572 q77 0 118 46.5t41 125.5t-41 125.5t-118 46.5h-572v-344zM520 877h535q64 0 101.5 37.5t37.5 105.5t-37.5 105.5t-101.5 37.5h-535v-286z" />
<glyph unicode="C" horiz-adv-x="1673" d="M61 717q0 370 185.5 547.5t556.5 177.5h223q107 0 208 -28.5t184 -82t133.5 -139.5t50.5 -191q0 -32 -12 -55.5t-30 -34.5t-33 -15.5t-28 -4.5h-119q-92 0 -143 110q-74 158 -246 158h-178q-90 0 -152.5 -14.5t-106.5 -44.5t-69 -83.5t-36 -125t-11 -174.5t11 -174.5 t36 -125t69 -84t106.5 -45t152.5 -14.5h199q171 0 245 158q52 111 144 111h119q18 0 39 -7.5t42 -34.5t21 -69q0 -85 -33 -157.5t-89 -123.5t-130 -87.5t-156 -54t-167 -17.5h-244q-371 0 -556.5 177.5t-185.5 547.5z" />
<glyph unicode="D" horiz-adv-x="1687" d="M143 92v1245q0 40 27.5 68.5t67.5 28.5h559q434 0 631.5 -173.5t197.5 -543.5t-197.5 -543.5t-631.5 -173.5h-559q-39 0 -67 27t-28 65zM520 283h266q138 0 227.5 24t142 79t73 133t20.5 198t-20.5 198t-73 133t-142 79t-227.5 24h-266v-868z" />
<glyph unicode="E" horiz-adv-x="1525" d="M143 96v1245q0 38 28.5 65.5t66.5 27.5h1153q39 0 66.5 -28t27.5 -67v-94q0 -39 -27.5 -66.5t-66.5 -27.5h-871v-291h750q38 0 66 -28t28 -66v-94q0 -38 -28 -66t-66 -28h-750v-295h869q38 0 65 -27.5t27 -65.5v-96q0 -38 -27.5 -66t-67.5 -28h-1148q-40 0 -67.5 28 t-27.5 68z" />
<glyph unicode="F" horiz-adv-x="1505" d="M143 96v1245q0 38 28.5 65.5t66.5 27.5h1153q39 0 66.5 -28t27.5 -67v-94q0 -39 -27.5 -66.5t-66.5 -27.5h-871v-352h709q38 0 66 -28t28 -66v-95q0 -38 -28 -66t-66 -28h-709v-420q0 -40 -27 -68t-67 -28h-188q-40 0 -67.5 28t-27.5 68z" />
<glyph unicode="G" horiz-adv-x="1695" d="M61 717q0 370 185.5 547.5t556.5 177.5h223q141 0 272 -45.5t217.5 -132t86.5 -191.5q0 -32 -12 -55.5t-30 -34.5t-33 -15.5t-28 -4.5h-119q-85 0 -135 94q-54 102 -254 102h-178q-90 0 -152.5 -14.5t-106.5 -44.5t-69 -83.5t-36 -125t-11 -174.5q0 -250 70 -346.5 t250 -96.5h205q161 0 230 61.5t71 176.5h-226q-38 0 -66 28t-28 66v78q0 38 28 66t66 28h502q38 0 66 -28t28 -66v-111q0 -280 -167.5 -430.5t-493.5 -150.5h-225q-333 0 -510 179.5t-177 545.5z" />
<glyph unicode="H" horiz-adv-x="1728" d="M143 94v1245q0 40 28.5 67.5t68.5 27.5h186q38 0 66 -28t28 -67v-450h688v450q0 39 28 67t67 28h186q40 0 68 -27.5t28 -67.5v-1245q0 -38 -28 -66t-68 -28h-186q-39 0 -67 27t-28 65v514h-688v-514q0 -38 -28 -65t-66 -27h-186q-40 0 -68.5 28t-28.5 66z" />
<glyph unicode="I" horiz-adv-x="663" d="M143 92v1247q0 39 28 67t67 28h186q40 0 68 -27.5t28 -67.5v-1245q0 -38 -28 -66t-68 -28h-186q-39 0 -67 27t-28 65z" />
<glyph unicode="J" horiz-adv-x="1130" d="M0 94v113q0 40 27 67t67 27h33q27 0 82.5 -9t85.5 -9h72q140 0 202 57t62 192v807q0 39 27.5 67t66.5 28h186q40 0 68.5 -27.5t28.5 -67.5v-804q0 -256 -170.5 -395.5t-460.5 -139.5h-283q-39 0 -66.5 27.5t-27.5 66.5z" />
<glyph unicode="K" horiz-adv-x="1628" d="M143 96v1243q0 40 28.5 68.5t66.5 28.5h188q38 0 66 -28.5t28 -68.5v-479h215q88 0 154.5 48t126.5 155l155 276q27 48 65.5 72.5t78.5 24.5h231q38 0 46 -28q2 -7 3 -16q0 -23 -18 -53l-217 -393q-47 -85 -105.5 -142t-152.5 -79q66 -14 135.5 -82.5t122.5 -150.5 l250 -398q18 -29 18 -51q0 -9 -3 -16q-10 -27 -50 -27h-229q-39 0 -84.5 27.5t-69.5 66.5l-176 279q-64 102 -127.5 153.5t-153.5 51.5h-215v-486q0 -38 -28 -65t-66 -27h-188q-38 0 -66.5 28t-28.5 68z" />
<glyph unicode="L" horiz-adv-x="1505" d="M143 92v1245q0 40 27.5 68.5t67.5 28.5h188q39 0 66.5 -28.5t27.5 -68.5v-1054h871q39 0 66.5 -27.5t27.5 -67.5v-94q0 -39 -27.5 -66.5t-66.5 -27.5h-1153q-39 0 -67 27t-28 65z" />
<glyph unicode="M" horiz-adv-x="2117" d="M143 96v1241q0 40 27.5 68.5t65.5 28.5h407q39 0 74 -28t47 -67l295 -854l295 854q12 39 47 67t74 28h407q38 0 65 -28.5t27 -68.5v-1241q0 -40 -27 -68t-67 -28h-180q-40 0 -67 28t-27 68v977l-353 -983q-14 -37 -49.5 -63.5t-73.5 -26.5h-143q-38 0 -73.5 26.5 t-49.5 63.5l-352 983v-977q0 -40 -27 -68t-67 -28h-180q-40 0 -67.5 28t-27.5 68z" />
<glyph unicode="N" horiz-adv-x="1775" d="M143 94v1245q0 38 27.5 66.5t65.5 28.5h294q35 0 74 -28.5t64 -66.5l604 -929v931q0 38 28 65.5t66 27.5h172q40 0 67 -27.5t27 -67.5v-1245q0 -39 -27.5 -66.5t-66.5 -27.5h-332q-38 0 -78.5 27t-66.5 67l-553 858v-858q0 -38 -28 -66t-66 -28h-176q-38 0 -66.5 28 t-28.5 66z" />
<glyph unicode="O" horiz-adv-x="1732" d="M61 717q0 389 204.5 568t600.5 179t600.5 -179t204.5 -568t-204.5 -568.5t-600.5 -179.5t-600.5 179.5t-204.5 568.5zM438 717q0 -237 102 -357t326 -120t326 120t102 357t-102 357t-326 120t-326 -120t-102 -357z" />
<glyph unicode="P" horiz-adv-x="1644" d="M143 94v1245q0 40 27.5 67.5t65.5 27.5h763q293 0 449 -137t156 -420t-156 -420.5t-449 -137.5h-479v-225q0 -39 -27.5 -66.5t-66.5 -27.5h-188q-38 0 -66.5 28t-28.5 66zM520 602h365q64 0 112 6t93 23.5t74 47.5t46 80t17 118t-17 117.5t-46 79.5t-74.5 47.5t-93 23.5 t-111.5 6h-365v-549z" />
<glyph unicode="Q" horiz-adv-x="1728" d="M61 727q0 382 205 559.5t600 177.5q197 0 343 -39t251 -123t158 -222.5t53 -331.5q0 -78 -16 -151t-34 -119.5t-51.5 -97t-49 -69t-45.5 -51.5h159q40 0 67.5 -27t27.5 -67v-82q0 -40 -27.5 -67t-67.5 -27h-768q-395 0 -600 177.5t-205 559.5zM438 727q0 -230 102 -348.5 t326 -118.5q428 0 428 488q0 227 -101 336.5t-327 109.5q-224 0 -326 -118.5t-102 -348.5z" />
<glyph unicode="R" horiz-adv-x="1654" d="M143 94v1245q0 40 27.5 67.5t65.5 27.5h825q229 0 375.5 -123.5t146.5 -331.5q0 -80 -29 -144t-82.5 -107t-118.5 -70.5t-147 -43.5q61 -22 112 -75.5t116 -155.5l182 -289q18 -29 18 -51q0 -9 -3 -16q-10 -27 -50 -27h-240q-39 0 -83.5 27.5t-69.5 66.5l-170 266 q-47 74 -107 119t-147 45h-244v-430q0 -39 -27.5 -66.5t-66.5 -27.5h-188q-38 0 -66.5 28t-28.5 66zM520 807h426q64 0 119.5 14.5t98 55.5t42.5 102t-42.5 102t-98 55.5t-119.5 14.5h-426v-344z" />
<glyph unicode="S" horiz-adv-x="1595" d="M61 360q0 32 12 55.5t30 34.5t33 16t28 5h119q89 0 135 -94q49 -103 213 -103h350q176 0 176 115q0 34 -30.5 61.5t-82.5 45t-121 35.5t-147 32t-160.5 34.5t-160.5 42.5t-147 58t-121 79.5t-82.5 106.5t-30.5 140t18.5 138.5t63.5 114.5t116.5 89t181.5 56t255 20h254 q131 0 252.5 -45.5t201.5 -132t80 -191.5q0 -32 -11.5 -55.5t-29.5 -34.5t-33 -15.5t-28 -4.5h-119q-89 0 -135 94q-48 102 -213 102h-301q-176 0 -176 -115q0 -38 37 -66.5t99.5 -48t144 -36.5t171.5 -35.5t179.5 -41t171 -57.5t144 -80.5t99.5 -114t37 -154.5 q0 -77 -18.5 -138.5t-63.5 -114.5t-116.5 -89t-181.5 -56t-255 -20h-303q-131 0 -252.5 45.5t-202 131.5t-80.5 191z" />
<glyph unicode="T" horiz-adv-x="1499" d="M20 1245v94q0 40 27.5 67.5t67.5 27.5h1269q40 0 67.5 -27.5t27.5 -67.5v-94q0 -40 -27.5 -67t-67.5 -27h-446v-1059q0 -38 -28 -65t-66 -27h-189q-38 0 -66 27t-28 65v1059h-446q-40 0 -67.5 27t-27.5 67z" />
<glyph unicode="U" horiz-adv-x="1687" d="M123 567v772q0 40 28 67.5t68 27.5h187q38 0 66 -28t28 -67v-774q0 -148 64 -219.5t200 -71.5h160q136 0 200 71.5t64 219.5v774q0 39 28 67t66 28h186q40 0 68.5 -27.5t28.5 -67.5v-772q0 -275 -160.5 -425t-470.5 -150h-180q-310 0 -470.5 150t-160.5 425z" />
<glyph unicode="V" horiz-adv-x="1634" d="M27 1350q-6 12 -6 24q-1 18 13 34q22 26 58 26h219q38 0 69 -27t50 -68l387 -862l387 862q19 41 50 68t69 27h219q36 0 58 -26q14 -16 13 -35q0 -11 -5 -23l-576 -1248q-48 -102 -143 -102h-144q-95 0 -143 102z" />
<glyph unicode="W" horiz-adv-x="2293" d="M25 1350q-4 12 -4 23q0 19 13 35q21 26 56 26h219q39 0 72 -27t47 -68l264 -792l244 792q13 42 43.5 68.5t75.5 26.5h184q45 0 75.5 -26.5t43.5 -68.5l244 -792l264 792q14 41 47 68t72 27h219q35 0 56 -26q13 -16 13 -35q0 -11 -4 -23l-446 -1248q-37 -102 -144 -102 h-145q-53 0 -90.5 27t-52.5 75l-244 770l-244 -770q-15 -48 -52.5 -75t-90.5 -27h-146q-106 0 -143 102z" />
<glyph unicode="X" horiz-adv-x="1536" d="M24 28q-4 8 -4 18q0 22 21 48l504 643l-475 602q-21 26 -21 49q-1 9 3 17q12 29 52 29h215q99 0 175 -95l274 -348l274 348q76 95 175 95h215q40 0 52 -29q3 -8 3 -17q0 -22 -21 -49l-475 -602l504 -643q21 -26 21 -48q0 -10 -4 -18q-12 -28 -52 -28h-213q-99 0 -174 94 l-305 389l-305 -389q-75 -94 -174 -94h-213q-40 0 -52 28z" />
<glyph unicode="Y" horiz-adv-x="1519" d="M24 1404q10 30 48 30h190q111 0 174 -95l324 -499l323 499q63 95 174 95h191q38 0 48 -30q4 -9 4 -19q0 -22 -17 -46l-535 -827v-420q0 -38 -28 -65t-66 -27h-188q-39 0 -67 27t-28 65v420l-534 827q-17 24 -17 46q0 10 4 19z" />
<glyph unicode="Z" horiz-adv-x="1468" d="M51 1245v94q0 40 27 67.5t67 27.5h1168q40 0 67 -27.5t27 -67.5v-112q0 -42 -17 -79t-32.5 -54t-44.5 -45l-787 -766h797q40 0 67 -27.5t27 -67.5v-94q0 -40 -27 -67t-67 -27h-1161q-40 0 -67 27t-27 67v111q0 44 16.5 83t32.5 58.5t45 48.5l762 756h-779q-40 0 -67 27 t-27 67z" />
<glyph unicode="[" horiz-adv-x="796" d="M143 -205v1659q0 26 18 44t44 18h510q26 0 43.5 -18t17.5 -44v-108q0 -26 -17.5 -44t-43.5 -18h-246v-1319h246q26 0 43.5 -17.5t17.5 -43.5v-109q0 -26 -17.5 -43.5t-43.5 -17.5h-510q-26 0 -44 17.5t-18 43.5z" />
<glyph unicode="\" horiz-adv-x="1054" d="M2.5 1405q9.5 29 46.5 29h168q60 0 106 -25.5t68 -69.5l649 -1245q21 -37 12 -65.5t-46 -28.5h-168q-61 0 -106.5 25t-67.5 69l-650 1245q-21 37 -11.5 66z" />
<glyph unicode="]" horiz-adv-x="796" d="M20 -96q0 26 18 43.5t44 17.5h246v1319h-246q-26 0 -44 18t-18 44v108q0 26 18 44t44 18h510q26 0 43.5 -18t17.5 -44v-1659q0 -26 -17.5 -43.5t-43.5 -17.5h-510q-26 0 -44 17.5t-18 43.5v109z" />
<glyph unicode="^" horiz-adv-x="1089" d="M5.5 799q-13.5 27 8.5 61l322 486q59 88 135 88h147q77 0 136 -88l321 -486q22 -34 8.5 -61t-49.5 -27h-157q-77 0 -134 84l-198 299l-199 -299q-57 -84 -133 -84h-158q-36 0 -49.5 27z" />
<glyph unicode="_" horiz-adv-x="819" d="M0 -61q0 26 17.5 43.5t43.5 17.5h697q26 0 43.5 -17.5t17.5 -43.5v-119q0 -26 -17.5 -44t-43.5 -18h-697q-26 0 -43.5 18t-17.5 44v119z" />
<glyph unicode="`" horiz-adv-x="563" d="M58.5 1390.5q34.5 43.5 115.5 43.5h82q49 0 93 -34t59 -81l104 -324q22 -65 -2.5 -100t-89.5 -35h-39q-95 0 -158 115l-164 303q-35 69 -0.5 112.5z" />
<glyph unicode="a" horiz-adv-x="1335" d="M61 332q0 167 132 257.5t342 90.5h331q0 116 -48.5 162.5t-155.5 46.5q-64 0 -116.5 -18t-78.5 -50q-43 -53 -115 -53h-149q-26 0 -44 17.5t-18 43.5q0 78 38 134.5t111 89.5t170 48t226 15q114 0 207 -24.5t166 -75.5t113 -136.5t40 -199.5v-619q0 -26 -17.5 -43.5 t-43.5 -17.5h-193q-26 0 -43.5 17.5t-17.5 43.5v31q-156 -112 -362 -112q-136 0 -242 39t-169 120t-63 193zM408 332q0 -56 42 -90.5t119 -34.5q153 0 297 90v156h-307q-70 0 -110.5 -34t-40.5 -87z" />
<glyph unicode="b" horiz-adv-x="1355" d="M123 92v1280q0 26 17.5 44t43.5 18h224q26 0 43.5 -18t17.5 -44v-307q52 17 87 26t89.5 17t112.5 8q246 0 391 -146.5t145 -422.5q0 -281 -160 -424t-475 -143q-145 0 -300.5 33t-235.5 79zM469 244q90 -23 211 -23q140 0 199 77t59 249q0 173 -58 250t-194 77 q-93 0 -217 -40v-590z" />
<glyph unicode="c" horiz-adv-x="1271" d="M61 547q0 280 154 424.5t440 144.5q269 0 417.5 -88t148.5 -260q0 -26 -18 -43.5t-44 -17.5h-149q-68 0 -115 73q-27 43 -83 68.5t-132 25.5q-144 0 -203 -76.5t-59 -250.5q0 -173 61 -249.5t211 -76.5q76 0 132 25.5t83 68.5q48 74 115 74h149q26 0 44 -17.5t18 -43.5 q0 -172 -148 -260t-417 -88q-294 0 -449.5 144t-155.5 423z" />
<glyph unicode="d" horiz-adv-x="1355" d="M61 547q0 276 145.5 422.5t391.5 146.5q58 0 112.5 -8t89.5 -17t87 -26v307q0 26 17.5 44t43.5 18h223q26 0 44 -18t18 -44v-1311q0 -26 -18 -43.5t-44 -17.5h-192q-26 0 -43.5 17.5t-17.5 43.5v31q-156 -112 -351 -112q-226 0 -366 147t-140 420zM418 547 q0 -170 54.5 -248t176.5 -78q94 0 238 90v523q-124 40 -217 40q-136 0 -194 -77t-58 -250z" />
<glyph unicode="e" horiz-adv-x="1290" d="M61 547q0 274 154.5 421.5t429.5 147.5q276 0 430 -143.5t154 -411.5v-57q0 -26 -18 -44t-44 -18h-753q11 -124 71 -179.5t185 -55.5q141 0 196 67q44 54 115 54h149q26 0 44 -18t18 -44q0 -78 -38.5 -134t-112.5 -89t-171.5 -48t-224.5 -15q-277 0 -430.5 146 t-153.5 421zM412 653h465q-9 236 -232 236q-110 0 -168.5 -60t-64.5 -176z" />
<glyph unicode="f" horiz-adv-x="983" d="M123 61v881q0 188 54 298t178.5 162t340.5 52q165 0 267 -20q27 -5 44 -22t17 -40v-110q0 -26 -17.5 -44t-43.5 -18h-37q-22 0 -66.5 8.5t-71.5 8.5q-104 0 -163.5 -11t-96 -44t-48 -83t-11.5 -137v-16h362q26 0 44 -18t18 -44v-119q0 -26 -18 -43.5t-44 -17.5h-362v-623 q0 -26 -17.5 -43.5t-43.5 -17.5h-224q-26 0 -43.5 17.5t-17.5 43.5z" />
<glyph unicode="g" horiz-adv-x="1335" d="M61 596q0 248 159 384t456 136q145 0 300.5 -33t235.5 -79v-926q0 -114 -40.5 -199.5t-115 -136.5t-172 -75.5t-218.5 -24.5q-278 0 -422 66.5t-144 219.5q0 26 18 44t44 18h149q72 0 115 -53q55 -68 215 -68q121 0 173 46t52 163v47q-164 -41 -299 -41 q-227 0 -366.5 138t-139.5 374zM418 596q0 -270 231 -270q97 0 217 30v496q-86 22 -211 22q-124 0 -180.5 -70t-56.5 -208z" />
<glyph unicode="h" horiz-adv-x="1396" d="M123 61v1311q0 26 17.5 44t43.5 18h224q26 0 43.5 -18t17.5 -44v-401q82 70 163 107.5t187 37.5q102 0 183.5 -28t143 -84.5t95 -150t33.5 -218.5v-574q0 -26 -18 -43.5t-44 -17.5h-223q-26 0 -43.5 17.5t-17.5 43.5v574q0 122 -51 180.5t-140 58.5q-125 0 -268 -143 v-670q0 -26 -17.5 -43.5t-43.5 -17.5h-224q-26 0 -43.5 17.5t-17.5 43.5z" />
<glyph unicode="i" horiz-adv-x="600" d="M123 1305v34q0 54 30.5 84.5t84.5 30.5h124q54 0 84.5 -30.5t30.5 -84.5v-34q0 -54 -30.5 -84.5t-84.5 -30.5h-124q-54 0 -84.5 30.5t-30.5 84.5zM127 61v949q0 26 17.5 43.5t43.5 17.5h224q26 0 43.5 -17.5t17.5 -43.5v-949q0 -26 -17.5 -43.5t-43.5 -17.5h-224 q-26 0 -43.5 17.5t-17.5 43.5z" />
<glyph unicode="j" horiz-adv-x="616" d="M-184 -168q0 26 17.5 44t43.5 18h31q18 0 50 -7.5t52 -7.5q54 0 93.5 55.5t39.5 178.5v897q0 26 18 43.5t44 17.5h223q26 0 43.5 -17.5t17.5 -43.5v-897q0 -471 -387 -471q-138 0 -225 20q-27 6 -44 22.5t-17 39.5v108zM139 1305v34q0 54 30.5 84.5t84.5 30.5h125 q54 0 84.5 -30.5t30.5 -84.5v-34q0 -54 -30.5 -84.5t-84.5 -30.5h-125q-54 0 -84.5 30.5t-30.5 84.5z" />
<glyph unicode="k" horiz-adv-x="1249" d="M123 61v1311q0 26 17.5 44t43.5 18h224q26 0 43.5 -18t17.5 -44v-710q174 0 238 135l96 204q20 43 59.5 69t83.5 26h189q38 0 46 -28q2 -8 2 -16q0 -22 -14 -51l-129 -272q-33 -68 -90.5 -117.5t-122.5 -62.5q124 -37 213 -180l170 -275q18 -29 18 -51q0 -8 -2 -16 q-10 -27 -50 -27h-189q-94 0 -153 94l-127 207q-40 65 -103 99t-135 34v-373q0 -26 -17.5 -43.5t-43.5 -17.5h-224q-26 0 -43.5 17.5t-17.5 43.5z" />
<glyph unicode="l" horiz-adv-x="591" d="M123 61v1311q0 26 17.5 44t43.5 18h224q26 0 43.5 -18t17.5 -44v-1311q0 -26 -17.5 -43.5t-43.5 -17.5h-224q-26 0 -43.5 17.5t-17.5 43.5z" />
<glyph unicode="m" horiz-adv-x="2058" d="M123 61v973q0 26 17.5 44t43.5 18h224q26 0 43.5 -18t17.5 -44v-63q72 70 141.5 107.5t167.5 37.5q234 0 352 -192q186 192 381 192q197 0 310.5 -118t113.5 -363v-574q0 -26 -17.5 -43.5t-43.5 -17.5h-223q-26 0 -44 17.5t-18 43.5v574q0 239 -174 239q-51 0 -108 -40 t-111 -113q6 -43 6 -86v-574q0 -26 -17.5 -43.5t-43.5 -17.5h-223q-26 0 -44 17.5t-18 43.5v574q0 239 -174 239q-61 0 -111.5 -36t-101.5 -107v-670q0 -26 -17.5 -43.5t-43.5 -17.5h-224q-26 0 -43.5 17.5t-17.5 43.5z" />
<glyph unicode="n" horiz-adv-x="1396" d="M123 61v973q0 26 17.5 44t43.5 18h224q26 0 43.5 -18t17.5 -44v-63q82 70 163 107.5t187 37.5q102 0 183.5 -28t143 -84.5t95 -150t33.5 -218.5v-574q0 -26 -18 -43.5t-44 -17.5h-223q-26 0 -43.5 17.5t-17.5 43.5v574q0 122 -51 180.5t-140 58.5q-125 0 -268 -143v-670 q0 -26 -17.5 -43.5t-43.5 -17.5h-224q-26 0 -43.5 17.5t-17.5 43.5z" />
<glyph unicode="o" horiz-adv-x="1331" d="M61 549q0 280 156 423.5t449 143.5t448.5 -143.5t155.5 -423.5t-155.5 -424.5t-448.5 -144.5t-449 144.5t-156 424.5zM408 549q0 -179 63 -260.5t195 -81.5t195 81.5t63 260.5t-63 259.5t-195 80.5t-195 -80.5t-63 -259.5z" />
<glyph unicode="p" horiz-adv-x="1355" d="M123 -276v1310q0 26 17.5 44t43.5 18h193q26 0 43.5 -18t17.5 -44v-30q156 112 350 112q226 0 366 -147t140 -420q0 -276 -145 -422.5t-391 -146.5q-58 0 -112.5 8t-89.5 17t-87 26v-307q0 -26 -17.5 -44t-43.5 -18h-224q-26 0 -43.5 18t-17.5 44zM469 262 q128 -41 217 -41q136 0 194 77.5t58 250.5q0 170 -54.5 247.5t-176.5 77.5q-94 0 -238 -90v-522z" />
<glyph unicode="q" horiz-adv-x="1355" d="M61 549q0 281 160 424t475 143q145 0 301 -33t236 -79v-1280q0 -26 -18 -44t-44 -18h-223q-26 0 -43.5 18t-17.5 44v307q-52 -17 -87 -26t-89.5 -17t-112.5 -8q-246 0 -391.5 146.5t-145.5 422.5zM418 549q0 -173 58 -250.5t194 -77.5q89 0 217 41v590q-86 22 -211 22 q-140 0 -199 -76.5t-59 -248.5z" />
<glyph unicode="r" horiz-adv-x="995" d="M123 61v973q0 26 17.5 44t43.5 18h224q26 0 43.5 -18t17.5 -44v-63q67 49 118 76.5t135 48t191 20.5q26 0 44 -17.5t18 -43.5v-152q0 -26 -18 -43.5t-44 -17.5h-32q-23 0 -75 3t-79 3q-134 0 -258 -148v-639q0 -26 -17.5 -43.5t-43.5 -17.5h-224q-26 0 -43.5 17.5 t-17.5 43.5z" />
<glyph unicode="s" horiz-adv-x="1224" d="M61 793q0 84 40 147.5t112.5 101t164.5 56t204 18.5q266 0 407 -67t141 -220q0 -26 -17.5 -43.5t-43.5 -17.5h-149q-72 0 -115 53q-26 32 -79 50t-120 18q-198 0 -198 -96q0 -30 32.5 -53t85.5 -36.5t121 -30t138.5 -32.5t138.5 -44.5t121 -64.5t85.5 -95t32.5 -134 q0 -85 -40.5 -148t-115.5 -100.5t-173.5 -56t-221.5 -18.5q-130 0 -228 15t-171.5 48t-111.5 89t-38 134q0 26 18 44t44 18h149q71 0 115 -54q55 -67 199 -67q229 0 229 96q0 30 -32.5 53t-85.5 37t-121 30.5t-139 32.5t-139 45t-121 65t-85.5 94.5t-32.5 132.5z" />
<glyph unicode="t" horiz-adv-x="921" d="M123 430v942q0 26 17.5 44t43.5 18h224q26 0 43.5 -18t17.5 -44v-334h279q26 0 43.5 -17.5t17.5 -43.5v-119q0 -26 -17.5 -43.5t-43.5 -17.5h-279v-367q0 -102 48 -157.5t128 -55.5q27 0 71 6t66 6h37q26 0 44 -17.5t18 -43.5v-107q0 -23 -17.5 -39.5t-44.5 -21.5 q-102 -20 -266 -20q-216 0 -323 110.5t-107 339.5z" />
<glyph unicode="u" horiz-adv-x="1396" d="M123 461v573q0 26 17.5 44t43.5 18h224q26 0 43.5 -18t17.5 -44v-573q0 -123 50.5 -181.5t139.5 -58.5q125 0 269 144v669q0 26 17.5 44t43.5 18h223q26 0 44 -18t18 -44v-973q0 -26 -18 -43.5t-44 -17.5h-223q-26 0 -43.5 17.5t-17.5 43.5v64q-82 -70 -163 -107.5 t-187 -37.5q-102 0 -183.5 28t-143 84.5t-95 150t-33.5 218.5z" />
<glyph unicode="v" horiz-adv-x="1343" d="M26 1070q12 26 46 26h192q42 0 80 -24.5t55 -63.5l273 -623l272 623q17 39 55 63.5t80 24.5h193q34 0 46 -26q5 -10 5 -22q0 -18 -10 -40l-432 -920q-19 -39 -56.5 -63.5t-79.5 -24.5h-147q-41 0 -78.5 24t-56.5 64l-432 920q-10 22 -10 40q0 12 5 22z" />
<glyph unicode="w" horiz-adv-x="1839" d="M26 1071q10 25 44 25h186q46 0 84 -23.5t51 -64.5l164 -539l162 539q12 41 42 64.5t72 23.5h177q42 0 72 -23.5t42 -64.5l162 -539l164 539q13 41 51 64.5t84 23.5h186q34 0 44 -25q4 -11 4 -24q0 -17 -7 -39l-303 -920q-13 -40 -49.5 -64t-77.5 -24h-141q-40 0 -77 24 t-50 64l-192 596l-193 -596q-13 -40 -50 -64t-77 -24h-141q-41 0 -77.5 24t-49.5 64l-303 920q-7 21 -7 39q0 13 4 24z" />
<glyph unicode="x" horiz-adv-x="1277" d="M33 30q-3 8 -3 17q0 21 17 41l348 461l-325 459q-22 29 -13.5 58.5t43.5 29.5h217q54 0 90 -22t66 -66l166 -252l166 252q30 44 66 66t90 22h217q35 0 43.5 -29.5t-13.5 -58.5l-325 -459l348 -461q17 -20 17 -41q0 -8 -3 -17q-9 -30 -45 -30h-213q-53 0 -88.5 22 t-67.5 66l-192 260l-193 -260q-33 -44 -67.5 -66t-87.5 -22h-213q-36 0 -45 30z" />
<glyph unicode="y" horiz-adv-x="1294" d="M35 1036q-2 7 -2 14q0 15 9 28q15 18 40 18h209q28 0 54.5 -19.5t35.5 -48.5l131 -424q49 -156 99.5 -216t119.5 -60l199 700q7 29 31.5 48.5t52.5 19.5h211q25 0 39 -18q10 -13 10 -29q0 -6 -2 -13l-262 -934q-70 -247 -173 -353.5t-278 -106.5q-150 0 -260 20 q-27 5 -44 22t-17 40v110q0 26 17.5 44t43.5 18h37q22 0 64.5 -8.5t66.5 -8.5q141 0 197 207q-83 0 -148.5 21.5t-126.5 73t-112 144t-93 228.5z" />
<glyph unicode="z" horiz-adv-x="1144" d="M51 61v97q0 47 17 77t55 68l526 551h-536q-26 0 -44 17.5t-18 43.5v119q0 26 18 44t44 18h911q26 0 43.5 -18t17.5 -44v-96q0 -47 -17 -77.5t-54 -67.5l-545 -551h563q26 0 44 -18t18 -44v-119q0 -26 -18 -43.5t-44 -17.5h-919q-26 0 -44 17.5t-18 43.5z" />
<glyph unicode="{" horiz-adv-x="862" d="M41 565v119q0 26 17.5 43.5t43.5 17.5h41q47 0 81 36t34 89v248q0 105 32.5 183.5t91.5 124.5t133.5 68t166.5 22h98q26 0 44 -18t18 -44v-108q0 -26 -18 -44t-44 -18h-41q-65 0 -112 -51t-47 -137v-195q0 -114 -62.5 -186t-163.5 -90q101 -18 163.5 -90.5t62.5 -186.5 v-194q0 -86 47 -137.5t112 -51.5h41q26 0 44 -17.5t18 -43.5v-109q0 -26 -18 -43.5t-44 -17.5h-98q-92 0 -166.5 22t-133.5 67.5t-91.5 124t-32.5 183.5v248q0 53 -34 89t-81 36h-41q-26 0 -43.5 17.5t-17.5 43.5z" />
<glyph unicode="|" horiz-adv-x="632" d="M143 -276v1648q0 26 18 44t44 18h223q26 0 43.5 -18t17.5 -44v-1648q0 -26 -17.5 -44t-43.5 -18h-223q-26 0 -44 18t-18 44z" />
<glyph unicode="}" horiz-adv-x="862" d="M20 -96q0 26 18 43.5t44 17.5h41q65 0 112.5 51.5t47.5 137.5v194q0 115 62 187t163 90q-101 18 -163 89.5t-62 186.5v195q0 85 -47.5 136.5t-112.5 51.5h-41q-26 0 -44 18t-18 44v108q0 26 18 44t44 18h98q92 0 166.5 -22t133.5 -68t91.5 -124.5t32.5 -183.5v-248 q0 -53 34 -89t81 -36h41q26 0 43.5 -17.5t17.5 -43.5v-119q0 -26 -17.5 -43.5t-43.5 -17.5h-41q-47 0 -81 -36t-34 -89v-248q0 -105 -32.5 -183.5t-91.5 -124t-133.5 -67.5t-166.5 -22h-98q-26 0 -44 17.5t-18 43.5v109z" />
<glyph unicode="~" horiz-adv-x="1216" d="M61 555q0 135 80 210t219 75q76 0 139.5 -16t100 -35.5t87.5 -35.5t104 -16q48 0 79 12t42.5 26t35 26t58.5 12h98q22 0 36.5 -14.5t14.5 -36.5q0 -135 -80 -210t-219 -75q-76 0 -139.5 16t-99.5 35.5t-87 35.5t-104 16q-48 0 -79 -12t-42.5 -26t-35 -26t-58.5 -12h-98 q-22 0 -37 14.5t-15 36.5z" />
<glyph unicode="&#xa0;" horiz-adv-x="1708" d="M25 92l251 952q24 92 73.5 162t112 112.5t144 69t161.5 36.5t173 10h539q36 0 61 -28t25 -65v-30h-654q-113 0 -204.5 -29t-148.5 -77t-91 -100.5t-49 -109.5l-262 -995h-62q-40 0 -60 27t-9 65zM219 0l125 461h844v57h-834l115 424q28 108 98.5 179.5t161 101.5 t201.5 30h635v-1161q0 -38 -28 -65t-67 -27h-188q-40 0 -67 27t-27 67v242h-690l-68 -242q-10 -40 -44.5 -67t-74.5 -27h-92zM571 639h617v491h-264q-98 0 -172 -54.5t-99 -145.5z" />
<glyph unicode="&#xa4;" horiz-adv-x="1683" d="M20 590v35h1215q59 -22 114 -87t126 -176l170 -268q25 -40 15 -67t-50 -27h-240q-39 0 -83.5 27.5t-69.5 66.5l-170 266q-47 74 -107 119t-147 45h-244v-430q0 -39 -27.5 -66.5t-66.5 -27.5h-189q-38 0 -66 28t-28 66v434h-90q-26 0 -44 18t-18 44zM20 672v35 q0 26 18 43.5t44 17.5h90v571q0 40 27 67.5t65 27.5h826q228 0 375 -114t147 -300q0 -77 -29.5 -138t-82 -102.5t-118.5 -67.5t-147 -40h-1215zM549 807h426q64 0 119.5 14.5t98 55.5t42.5 102t-42.5 102t-98 55.5t-119.5 14.5h-426v-344z" />
<glyph unicode="&#xa6;" horiz-adv-x="591" d="M123 -276v696q0 26 17.5 43.5t43.5 17.5h224q26 0 43.5 -17.5t17.5 -43.5v-696q0 -26 -17.5 -44t-43.5 -18h-224q-26 0 -43.5 18t-17.5 44zM123 676v696q0 26 17.5 44t43.5 18h224q26 0 43.5 -18t17.5 -44v-696q0 -26 -17.5 -44t-43.5 -18h-224q-26 0 -43.5 18t-17.5 44z " />
<glyph unicode="&#xa7;" horiz-adv-x="1286" d="M82 588q0 169 121 264q-101 94 -101 227q0 375 541 375q126 0 222.5 -15t169 -48t110 -89.5t37.5 -134.5q0 -26 -18 -43.5t-44 -17.5h-149q-72 0 -115 53q-26 32 -77 50t-111 18q-120 0 -169.5 -31.5t-49.5 -105.5q0 -41 32.5 -72.5t85.5 -50.5t121 -40t138.5 -40 t138.5 -51.5t121 -72.5t85.5 -106t32.5 -149q0 -169 -121 -266q101 -94 101 -226q0 -374 -541 -374q-126 0 -222 15t-169 48t-110.5 89t-37.5 134q0 26 18 44t44 18h149q72 0 115 -53q26 -32 77 -50t111 -18q121 0 170.5 31.5t49.5 105.5q0 37 -26 65.5t-69.5 48 t-100.5 36.5t-119.5 35t-125 39t-119.5 52t-100.5 71t-69.5 100.5t-26 134.5zM428 588q0 -20 10 -38t32 -33.5t45.5 -28t61.5 -26t68 -23.5t77.5 -25t78.5 -25q57 32 57 119q0 20 -10 38t-32 33.5t-45.5 28t-62 26t-68 23t-78 25t-79.5 25.5q-55 -35 -55 -119z" />
<glyph unicode="&#xa9;" horiz-adv-x="1740" d="M61 655q0 375 218.5 587t590.5 212t590.5 -212t218.5 -587t-218.5 -586.5t-590.5 -211.5t-590.5 211.5t-218.5 586.5zM311 655q0 -267 146.5 -425t412.5 -158t413 158t147 425q0 268 -146.5 426t-413.5 158t-413 -158t-146 -426zM481 653q0 183 100 277t285 94 q174 0 270.5 -57.5t96.5 -169.5q0 -17 -12 -28t-29 -11h-96q-45 0 -74 47q-38 61 -139 61q-93 0 -131.5 -50t-38.5 -163q0 -112 39.5 -161.5t136.5 -49.5q98 0 139 62q28 49 74 49h98q17 0 28 -12t11 -29q0 -112 -96 -168.5t-271 -56.5q-190 0 -290.5 93t-100.5 273z" />
<glyph unicode="&#xab;" horiz-adv-x="1019" d="M41 537v49q0 39 39 92l205 262q33 45 82 45h122q31 0 37 -23.5t-16 -58.5l-209 -342l209 -342q22 -35 16 -58.5t-37 -23.5h-122q-49 0 -82 45l-205 262q-39 53 -39 93zM492 537v49q0 41 38 92l205 262q33 45 82 45h123q31 0 37 -23.5t-16 -58.5l-209 -342l209 -342 q22 -35 16 -58.5t-37 -23.5h-123q-49 0 -82 45l-205 262q-38 51 -38 93z" />
<glyph unicode="&#xac;" horiz-adv-x="1708" d="M25 92l251 952q24 92 73.5 162t112 112.5t144 69t161.5 36.5t173 10h539q36 0 61 -28t25 -65v-30h-654q-113 0 -204.5 -29t-148.5 -77t-91 -100.5t-49 -109.5l-262 -995h-62q-40 0 -60 27t-9 65zM219 0l125 461h844v57h-834l115 424q28 108 98.5 179.5t161 101.5 t201.5 30h635v-1161q0 -38 -28 -65t-67 -27h-188q-40 0 -67 27t-27 67v242h-690l-68 -242q-10 -40 -44.5 -67t-74.5 -27h-92zM571 639h617v491h-264q-98 0 -172 -54.5t-99 -145.5z" />
<glyph unicode="&#xad;" d="M41 569v119q0 26 17.5 44t43.5 18h754q26 0 44 -18t18 -44v-119q0 -26 -18 -43.5t-44 -17.5h-754q-26 0 -43.5 17.5t-17.5 43.5z" />
<glyph unicode="&#xae;" horiz-adv-x="1740" d="M61 655q0 375 218.5 587t590.5 212t590.5 -212t218.5 -587t-218.5 -586.5t-590.5 -211.5t-590.5 211.5t-218.5 586.5zM311 655q0 -267 146.5 -425t412.5 -158t413 158t147 425q0 268 -146.5 426t-413.5 158t-413 -158t-146 -426zM514 336v643q0 20 14.5 33.5t34.5 13.5 h432q120 0 196.5 -63t76.5 -170q0 -153 -197 -189q32 -11 58 -38.5t61 -80.5l96 -149q12 -22 7.5 -35.5t-25.5 -13.5h-125q-21 0 -45 14t-37 35l-88 137q-55 84 -133 84h-129v-221q0 -21 -14 -35t-35 -14h-99q-20 0 -34.5 14.5t-14.5 34.5zM711 702h223q54 0 95.5 22 t41.5 69q0 46 -41 67t-96 21h-223v-179z" />
<glyph unicode="&#xb0;" horiz-adv-x="819" d="M61 1122q0 154 100 243t249 89t248.5 -89t99.5 -243t-99.5 -242.5t-248.5 -88.5t-249 88.5t-100 242.5zM274 1122q0 -78 37 -122t99 -44t98.5 43.5t36.5 122.5t-36.5 122.5t-98.5 43.5t-99 -44t-37 -122z" />
<glyph unicode="&#xb1;" d="M41 233v119q0 26 17.5 44t43.5 18h250v182h-250q-26 0 -43.5 17.5t-17.5 43.5v119q0 26 17.5 44t43.5 18h250v249q0 26 18 44t44 18h118q26 0 44 -18t18 -44v-249h262q26 0 44 -18t18 -44v-119q0 -26 -18 -43.5t-44 -17.5h-262v-182h262q26 0 44 -18t18 -44v-119 q0 -26 -18 -43.5t-44 -17.5h-754q-26 0 -43.5 17.5t-17.5 43.5z" />
<glyph unicode="&#xb5;" horiz-adv-x="1396" d="M123 -276v1310q0 26 17.5 44t43.5 18h224q26 0 43.5 -18t17.5 -44v-542q0 -128 59.5 -199.5t141.5 -71.5q72 0 140.5 51t117.5 134v628q0 26 17.5 44t43.5 18h223q26 0 44 -18t18 -44v-973q0 -26 -18 -43.5t-44 -17.5h-223q-26 0 -43.5 17.5t-17.5 43.5v64 q-68 -80 -122.5 -112.5t-129.5 -32.5q-133 0 -207 71v-327q0 -26 -17.5 -44t-43.5 -18h-224q-26 0 -43.5 18t-17.5 44z" />
<glyph unicode="&#xb6;" horiz-adv-x="1437" d="M61 1065q0 117 59 202t155.5 126t216.5 41h843q26 0 44 -18t18 -44v-104q0 -26 -18 -44t-44 -18h-90v-1450q0 -38 -28 -66t-68 -28h-229v1544h-103v-1544h-231q-39 0 -66.5 27.5t-27.5 66.5v936q-120 0 -216.5 42t-155.5 128t-59 203z" />
<glyph unicode="&#xb7;" horiz-adv-x="802" d="M205 596v63q0 65 35.5 100.5t99.5 35.5h123q64 0 99.5 -35.5t35.5 -100.5v-63q0 -64 -35 -99.5t-100 -35.5h-123q-64 0 -99.5 35.5t-35.5 99.5z" />
<glyph unicode="&#xbb;" horiz-adv-x="1019" d="M43 160.5q-6 23.5 16 58.5l209 342l-209 342q-22 35 -16 58.5t37 23.5h123q49 0 82 -45l204 -262q39 -53 39 -92v-49q0 -40 -39 -93l-204 -262q-33 -45 -82 -45h-123q-31 0 -37 23.5zM493.5 160.5q-5.5 23.5 16.5 58.5l209 342l-209 342q-22 35 -16.5 58.5t36.5 23.5h123 q49 0 82 -45l205 -262q39 -53 39 -92v-49q0 -40 -39 -93l-205 -262q-33 -45 -82 -45h-123q-31 0 -36.5 23.5z" />
<glyph unicode="&#x2000;" horiz-adv-x="797" />
<glyph unicode="&#x2001;" horiz-adv-x="1595" />
<glyph unicode="&#x2002;" horiz-adv-x="797" />
<glyph unicode="&#x2003;" horiz-adv-x="1595" />
<glyph unicode="&#x2004;" horiz-adv-x="531" />
<glyph unicode="&#x2005;" horiz-adv-x="398" />
<glyph unicode="&#x2006;" horiz-adv-x="265" />
<glyph unicode="&#x2007;" horiz-adv-x="265" />
<glyph unicode="&#x2008;" horiz-adv-x="199" />
<glyph unicode="&#x2009;" horiz-adv-x="319" />
<glyph unicode="&#x200a;" horiz-adv-x="88" />
<glyph unicode="&#x2010;" d="M41 569v119q0 26 17.5 44t43.5 18h754q26 0 44 -18t18 -44v-119q0 -26 -18 -43.5t-44 -17.5h-754q-26 0 -43.5 17.5t-17.5 43.5z" />
<glyph unicode="&#x2011;" d="M41 569v119q0 26 17.5 44t43.5 18h754q26 0 44 -18t18 -44v-119q0 -26 -18 -43.5t-44 -17.5h-754q-26 0 -43.5 17.5t-17.5 43.5z" />
<glyph unicode="&#x2012;" d="M41 569v119q0 26 17.5 44t43.5 18h754q26 0 44 -18t18 -44v-119q0 -26 -18 -43.5t-44 -17.5h-754q-26 0 -43.5 17.5t-17.5 43.5z" />
<glyph unicode="&#x2013;" horiz-adv-x="763" d="M41 535v151q0 26 17.5 44t43.5 18h560q26 0 43.5 -18t17.5 -44v-151q0 -26 -17.5 -44t-43.5 -18h-560q-26 0 -43.5 18t-17.5 44z" />
<glyph unicode="&#x2014;" horiz-adv-x="1257" d="M41 569v119q0 26 17.5 44t43.5 18h1053q26 0 44 -18t18 -44v-119q0 -26 -18 -43.5t-44 -17.5h-1053q-26 0 -43.5 17.5t-17.5 43.5z" />
<glyph unicode="&#x2018;" horiz-adv-x="550" d="M96 1018l119 301q20 48 62 81.5t96 33.5h39q63 0 83.5 -33t8.5 -103l-60 -321q-9 -47 -55 -81t-96 -34h-82q-80 0 -112 42.5t-3 113.5z" />
<glyph unicode="&#x2019;" horiz-adv-x="550" d="M47 997l59 322q9 46 55.5 80.5t96.5 34.5h82q80 0 112 -42.5t3 -113.5l-119 -301q-20 -48 -62 -81.5t-96 -33.5h-39q-63 0 -83.5 32.5t-8.5 102.5z" />
<glyph unicode="&#x201a;" horiz-adv-x="550" d="M47 -113l59 322q9 46 55.5 80.5t96.5 34.5h82q80 0 112 -42.5t3 -113.5l-119 -301q-20 -48 -62 -81.5t-96 -33.5h-39q-63 0 -83.5 32.5t-8.5 102.5z" />
<glyph unicode="&#x201c;" horiz-adv-x="980" d="M96 1018l119 301q20 48 62 81.5t96 33.5h39q63 0 83.5 -33t8.5 -103l-60 -321q-9 -47 -55 -81t-96 -34h-82q-80 0 -112 42.5t-3 113.5zM526 1018l119 301q20 48 62 81.5t96 33.5h39q63 0 83.5 -33t8.5 -103l-60 -321q-9 -47 -55 -81t-96 -34h-82q-80 0 -112 42.5 t-3 113.5z" />
<glyph unicode="&#x201d;" horiz-adv-x="980" d="M47 997l59 322q9 46 55.5 80.5t96.5 34.5h82q80 0 112 -42.5t3 -113.5l-119 -301q-20 -48 -62 -81.5t-96 -33.5h-39q-63 0 -83.5 32.5t-8.5 102.5zM477 997l60 322q9 47 55 81t96 34h82q80 0 112 -42.5t3 -113.5l-119 -301q-20 -48 -62 -81.5t-96 -33.5h-39 q-63 0 -83.5 32.5t-8.5 102.5z" />
<glyph unicode="&#x201e;" horiz-adv-x="980" d="M47 -113l59 322q9 46 55.5 80.5t96.5 34.5h82q80 0 112 -42.5t3 -113.5l-119 -301q-20 -48 -62 -81.5t-96 -33.5h-39q-63 0 -83.5 32.5t-8.5 102.5zM477 -113l60 322q9 47 55 81t96 34h82q80 0 112 -42.5t3 -113.5l-119 -301q-20 -48 -62 -81.5t-96 -33.5h-39 q-63 0 -83.5 32.5t-8.5 102.5z" />
<glyph unicode="&#x2022;" horiz-adv-x="819" d="M61 625q0 154 100 242.5t249 88.5t248.5 -88.5t99.5 -242.5t-99.5 -243t-248.5 -89t-249 89t-100 243z" />
<glyph unicode="&#x2026;" horiz-adv-x="1519" d="M82 125v63q0 65 35.5 100.5t99.5 35.5h123q64 0 99.5 -35.5t35.5 -100.5v-63q0 -65 -35.5 -100t-99.5 -35h-123q-65 0 -100 35t-35 100zM563 125v63q0 65 35.5 100.5t99.5 35.5h123q64 0 99.5 -35.5t35.5 -100.5v-63q0 -65 -35 -100t-100 -35h-123q-64 0 -99.5 35 t-35.5 100zM1044 125v63q0 64 36 100t100 36h123q64 0 99.5 -35.5t35.5 -100.5v-63q0 -65 -35 -100t-100 -35h-123q-65 0 -100.5 35.5t-35.5 99.5z" />
<glyph unicode="&#x202f;" horiz-adv-x="319" />
<glyph unicode="&#x2039;" horiz-adv-x="860" d="M61 522v49q0 65 60 109l569 403q34 24 61 9.5t27 -50.5v-172q0 -42 -23 -73.5t-65 -61.5l-266 -188l266 -189q42 -30 65 -61.5t23 -73.5v-172q0 -36 -27 -50.5t-61 9.5l-569 404q-60 44 -60 108z" />
<glyph unicode="&#x203a;" horiz-adv-x="860" d="M82 51v172q0 42 23 73.5t65 61.5l266 189l-266 188q-42 30 -65 61.5t-23 73.5v172q0 36 27 50.5t61 -9.5l569 -403q60 -44 60 -109v-49q0 -64 -60 -108l-569 -404q-34 -24 -61 -9.5t-27 50.5z" />
<glyph unicode="&#x205f;" horiz-adv-x="398" />
<glyph unicode="&#x20ac;" horiz-adv-x="1771" d="M0 643v47h1126v-47q0 -26 -17.5 -43.5t-43.5 -17.5h-522q7 -169 92.5 -238.5t275.5 -69.5h199q179 0 246 138q30 60 64 85t79 25h119q13 0 28 -4.5t33 -15.5t29.5 -34.5t11.5 -55.5q0 -98 -50.5 -179t-133 -132.5t-184 -80t-207.5 -28.5h-244q-337 0 -521 144.5 t-214 445.5h-105q-26 0 -43.5 17.5t-17.5 43.5zM31 745v48q0 26 17.5 43.5t43.5 17.5h74q33 298 217 443t518 145h223q106 0 208 -28.5t184.5 -80t133 -132.5t50.5 -179q0 -32 -12 -55.5t-30 -34.5t-33 -16t-28 -5h-118q-45 0 -79.5 25t-64.5 86q-67 137 -245 137h-179 q-189 0 -273.5 -68t-94.5 -237h553q26 0 43.5 -17.5t17.5 -43.5v-48h-1126z" />
<glyph unicode="&#x2122;" horiz-adv-x="1650" d="M0 1327v70q0 17 10 27t25 10h588q15 0 25.5 -10t10.5 -27v-70q0 -17 -10.5 -27t-25.5 -10h-191v-477q0 -15 -11 -26t-26 -11h-133q-15 0 -26 11t-11 26v477h-190q-15 0 -25 10t-10 27zM709 813v584q0 17 10.5 27t25.5 10h205q37 0 54 -43l145 -359l145 359q17 43 54 43 h204q16 0 26.5 -10t10.5 -27v-584q0 -15 -11 -26t-26 -11h-129q-15 0 -26 11t-11 26v375l-151 -369q-21 -43 -57 -43h-58q-36 0 -57 43l-152 369v-375q0 -15 -11 -26t-26 -11h-129q-15 0 -25.5 11t-10.5 26z" />
<glyph unicode="&#xe000;" horiz-adv-x="1095" d="M0 0v1096h1096v-1096h-1096z" />
</font>
</defs>
</svg>
